Michael Jacksons Ghosts

Torrent Details

Michael Jacksons Ghosts

NAME
Michael Jacksons Ghosts.torrent
CATEGORY
Music
INFOHASH
eb62f9a1285382d655b97abfbd1e3f4c654f33e8
SIZE
560 MB in 3 files
ADDED
Uploaded on 09-01-2018 by our crawler pet called "Spidey".
SWARM
13 seeders & 2 peers
RATING
No votes yet.

Please login to vote for this torrent.


Description



Michael Jackson's Ghosts is a 1996 short film starring Michael Jackson, co-written by horror novelist Stephen King alongside Mick Garris and directed by film director and special effects guru Stan Winston which could also be classified as a long-form music video. It was filmed and first screened in 1996 and released along with select prints of the film Thinner. It was released as promo a year later internationally on LaserDisc, VHS and Video CD. Jackson plays a total of five roles in the film.

The film tells the story of a scary Maestro with supernatural powers, who is being forced out of a small town by its mayor all the way to New York, pictured as a comically arrogant, plump man. The movie includes a series of dance routines performed by Michael Jackson and his "family" of ghouls. Every song from the film was taken from Michael Jackson's albums HIStory: Past, Present and Future, Book I and Blood on the Dance Floor: HIStory in the Mix.

Note: I am not a big MJ fan but this is an amazing piece of work. Ensure you watch it all the way through as they have some great behind the scenes makeup and special effects stuff they show during the credits.

General
Complete name : Michael Jacksons Ghosts Full.mp4
Format : MPEG-4
Format profile : Base Media / Version 2
Codec ID : mp42 (isom/mp42)
File size : 560 MiB
Duration : 39mn 41s
Overall bit rate mode : Variable
Overall bit rate : 1 974 Kbps
Encoded date : UTC 2014-05-03 03:11:53
Tagged date : UTC 2014-05-03 03:11:53


Video
ID : 1
Format : AVC
Format/Info : Advanced Video Codec
Format profile : [email protected]
Format settings, CABAC : Yes
Format settings, ReFrames : 1 frame
Format settings, GOP : M=1, N=60
Codec ID : avc1
Codec ID/Info : Advanced Video Coding
Duration : 39mn 41s
Bit rate : 1 780 Kbps
Maximum bit rate : 4 524 Kbps
Width : 1 280 pixels
Height : 720 pixels
Display aspect ratio : 16:9
Frame rate mode : Constant
Frame rate : 29.970 (30000/1001) fps
Color space : YUV
Chroma subsampling : 4:2:0
Bit depth : 8 bits
Scan type : Progressive
Bits/(Pixel*Frame) : 0.064
Stream size : 505 MiB (90%)
Tagged date : UTC 2014-05-03 03:13:17

Audio
ID : 2
Format : AAC
Format/Info : Advanced Audio Codec
Format profile : LC
Codec ID : 40
Duration : 39mn 41s
Bit rate mode : Variable
Bit rate : 192 Kbps
Maximum bit rate : 203 Kbps
Channel(s) : 2 channels
Channel positions : Front: L R
Sampling rate : 44.1 KHz
Frame rate : 43.066 fps (1024 spf)
Compression mode : Lossy
Stream size : 54.5 MiB (10%)

Discussion

Comments 0

Post Your Comment

Files in this torrent

FILENAMESIZE
Michael Jacksons Ghosts Full.mp4560.3 MB
Torrent_downloaded_from_1337x.txt49 B
Torrent_downloaded_from_Demonoid_-_www.demonoid.pw_.txt59 B

Alternative Torrents for ''.

There are no alternative torrents found.